while the city sleeps

While the City Sleeps. It's another bare bones but effective production, and has a very condensed stage-like spatial sense. Lyrics to 'While The City Sleeps' by Kiss. DR13 -1.49 dB -17.67 dB 3:36 01-While The City Sleeps DR13 -2.42 dB -17.80 dB 4:26 02-Kisses In The Moonlight DR14 -1.13 dB -16.89 dB 5:24 03-Shiver The film opens with a vicious killer attacking an innocent woman in her apartment. While the City Sleeps (1956) is a Film Noir directed by Fritz Lang and featuring a star-studded cast. When a man in mid-life crisis befriends a young woman, her venal fiancé persuades her to con him out of the fortune they mistakenly assume he possesses. Get a special offer and listen to over 60 million songs, anywhere with Amazon Music Unlimited. What goes on behind closed doors Private wounds, open sores You're your own worst enemy And cheap thrills bring you to your knees It's thumbs down for someone you know In "While the City Sleeps," Edward Mobley (Dana Andrews) is left with the tough job of having to announce the death of Amos Kyne (Robert Warwick), the owner of Kyne Media and … Taking the bait, the Lipstick Killer follows Nancy to her apartment to attack her, but fails to gain entrance. Although it does not have any instrumental tracks, Benson's guitar playing is somewhat in the headlight in songs like "Love Is Here Tonight", "Teaser" and "Too Many Times". Was this review helpful to you? Listen to While the City Sleeps... by George Benson on Apple Music. A close partner of the same year's Beyond a Reasonable Doubt, the two urban thrillers made up a double deal struck between Lang and producer Bert E. Friedlob for RKO, a studio soon to be disbanded. Renews automatically. It's nothing more and nothing less. Features While The City Sleeps, along with Tenderly, Give Me The Night, and the double length Collection tape. The Blue Gardenia - a cynical take on press coverage of a sensational murder case - was the first installment of Lang's "newspaper noir" movie trio, being followed in 1956 by both While the City Sleeps and Beyond a Reasonable Doubt. He established himself playing gangland heavies in a series of collaborations with Tod Browning and played a lord of the San Francisco criminal underworld in The Penalty, the picture that really established Lon Chaney as Lon Chaney.In this film, though, he’s on the opposite side of the law. Her brother Joe fears that his love, fish cannery worker Peggy, may wind up like Mae. After a second murder, the two men devise a plan to set a trap by using Nancy as the bait, with Mobley taunting the Lipstick Killer (John Drew Barrymore) on TV in order to bring him out into the open. It features musicians like Paulinho da Costa, Preston Glass, Paul Jackson, Jr., Marcus Miller and Narada Michael Walden (as drummer and producer), alongside young talents of the time like Kenny G, Randy Jackson and Kashif. 2014 Preview SONG TIME While the City Sleeps (feat. He sets up a competition among the three heavy-hitters in the company - the newspaper editor John Day Griffith (Mitchell), the head of the wire service, Mark Loving (Sanders) and a news photographer Harry Kritzer (Craig). A serial killer has been killing beautiful women in New York and the new owner of a media company offers a high ranking job to the first of his senior executives who can get the earliest scoops on the case. While the City Sleeps is a 1956 film noir directed by Fritz Lang and starring Dana Andrews, Rhonda Fleming, George Sanders, Howard Duff, Thomas Mitchell, Vincent Price, John Drew Barrymore and Ida Lupino. Get a special offer and listen to over 60 million songs, anywhere with Amazon Music Unlimited. While the City Sleeps is a bit of a throwback with a twist in Chaney’s career. October 2, 1986 4.8 out of 5 stars 22 ratings. It's a sensational story if it bleeds, it leads and a news conglomerate offers a big promotion to the high-level company exec who solves the case. Stephen Neale has just been released from an asylum during World War II in England when he accidentally stumbles onto a deadly Nazi spy plot, and tries to stop it. The city in the film is supposed to be New York, but the film was shot in Los Angeles. With these changes came rampant crime, a chaotic environment in the streets, and intense class conflict. While the City Sleeps (1956) Trivia (19) Add new The movie was based on a real murder case that took place in 1946. as he's holding Nancy tight in her apartment's doorway, Nancy pushes away from Ed and glares at him, With Rhonda Fleming’s Death, These 19 Hitchcock Actors Remain, Rhonda Fleming, ‘Queen of Technicolor’ Who Appeared in ‘Spellbound,’ Dies at 97, Dragan Antulov , The Last Drive-In with Joe Bob Briggs: Joe Bob's Red Christmas: Black Christmas. In 2011 it was released in the U.S. on DVD-R by the Warner Archive Collection (WAC). ‎Watch trailers, read customer and critic reviews, and buy While the City Sleeps directed by Fritz Lang. Mae Doyle comes back to her hometown a cynical woman. While the City Sleeps is an extraordinary work of scholarship from one of Argentina’s leading historians of modern Buenos Aires society and culture.In the late nineteenth century, the city saw a massive population boom and large-scale urban development. 13 of 22 people found this review helpful. Where to Watch. The first one who solves the "Lipstick Killer" murders wins the job as director of the company.The black and white cinematography gives "While the City Sleeps" a great atmosphere, and some of the characters are a real hoot, including Lupino, who plays Mildred, a columnist for the paper, and Rhonda Fleming as Kyne's gorgeous wife who is having an affair with one of the contenders, Kritzer. Internet review site DVD Beaver compared these releases, citing the Exposure release as superior due to the Warner Archive release being "Single-layered and significantly softer. Lyrics to 'While The City Sleeps' by Kiss. Mobley becomes engaged to Nancy Liggett and receives inside information from his police friend, Lt. Kaufman (Howard Duff). Written by Casey Robinson, the newspaper drama was based on The Bloody Spur by Charles Einstein, which depicts the story of "Lipstick Killer" William Heirens. As Mobley and Griffith discuss the aftermath of these events in a bar, Mobley announces that he has resigned. In the late nineteenth century, the city saw a massive population boom and large-scale urban development. JC) 1. ENTER CITY, STATE OR ZIP CODE GO. The screenplay was written by Casey Robinson and loosely follows the book The Bloody Spur, written by Charles Einstein. Tough cop Dave Bannion takes on a politically powerful crime syndicate. Where to Watch. The discussion concerns what will happen to the media empire after Kyne's death; Mobley refuses the top job down more than once. Lang's most underrated movie. Reporter Edward Mobley is faced with almost impossible missions: to catch the killer, to prevent the media empire from falling into the wrong hands, and to save his romantic relationship from break-up. Written by Casey Robinson, the newspaper drama was based on The Bloody Spur by Charles Einstein, which depicts the story of "Lipstick Killer" William Heirens. Steve Means) 2. It stars some actors who had either seen better days in film or hadn't moved up the ladder much - Dana Andrews, Ida Lupino, George Sanders, Thomas Mitchell, Vincent Price, Sally Forrest, James Craig, and John Drew Barrymore. While the City Sleeps. 1956; 1 hr 40 mins Drama, Suspense NR Watchlist. While the City Sleeps... is a 1986 studio album by George Benson, released on Warner Bros. Records. Listen to music by While The City Sleeps on Apple Music. A telephone operator ends up drunk and at the mercy of a cad in his apartment. Crime. In 1998, Jonathan Rosenbaum of the Chicago Reader included the film in his unranked list of the best American films not included on the AFI Top 100. While the City Sleeps is a 1928 American silent crime drama film about a tough New York City police detective, played by Lon Chaney, out to get a murdering gangster.The film was directed by Jack Conway and co-stars Anita Page, Carroll Nye, Wheeler Oakman, and Mae Busch. The reviewer, Gary Tooze, also states that "There are no extras, not even the trailer that is available on [the] Exposure disc". Five decades after the film's release, critic Dennis Schwartz wrote, "Fritz Lang ('M') directs his most under-appreciated … With these changes came rampant crime, a chaotic environment in the streets, and intense class conflict. [4] It was made for United Artists.[5]. "[7], Decades after the film's release, it continues to attract critical attention. HoloLens PC Mobile device Xbox 360 Description. With the problems that the studios were having coping with television and the breakup of their monopoly of theaters, no one really wanted to deal with the difficult Lang. Newsmen use reporter (Dana Andrews) and women (Ida Lupino, Rhonda Fleming) to find Lipstick Killer. While the City Sleeps is an extraordinary work of scholarship from one of Argentina’s leading historians of modern Buenos Aires society and culture.In the late nineteenth century, the city saw a massive population boom and large-scale urban development. [1] While the City Sleeps (1954) was Fritz Lang's last fully successful film, one of a pair of movies that he made with independent producer Bert E. Friedlob (the other was Beyond a … It's a '40s cast, and the film, set in New York City, has a '40s feel to it.Andrews plays a Pulitzer-prize winning writer, Ed Mobley, an Ed Murrow type, who does a television commentary. Get a special offer and listen to over 60 million songs, anywhere with Amazon Music Unlimited. In that year William Heirens killed three women and left a message scrawled in lipstick on a bathroom mirror after the second murder. Search for "While the City Sleeps" on Amazon.com, Title: Use the HTML below. To help conceal the affair, Dorothy has rented an apartment that coincidentally happens to be adjacent to that of Loving's secretary, Nancy Liggett (Sally Forrest). The killer runs away, and a chase unfolds until the police catch him. Find low everyday prices and buy online for delivery or in-store pick-up. The transformation of George Benson, guitar icon, into George Benson, pop singer, is … In the message, he urged the police to catch him before he killed again. The writer engages his brother's help in hiding the body, causing unexpected problems for both of them. PHOTO FRONT PHOTO BACK. (1956). Rated the #52 best film of 1956, and #5499 in the greatest all-time movies (according to RYM users). Loving manipulates star writer Mildred Donner (Ida Lupino) to cozy up to and get information out of Mobley. He established himself playing gangland heavies in a series of collaborations with Tod Browning and played a lord of the San Francisco criminal underworld in The Penalty, the picture that really established Lon Chaney as Lon Chaney.In this film, though, he’s on the opposite side of the law. With these changes came rampant crime, a chaotic environment in the streets, and intense class conflict. 1956; 1 hr 40 mins Drama, Suspense NR Watchlist. RKO Studios - 780 N. Gower Street, Hollywood, Los Angeles, California, USA. Kritzer is out; the promotion has gone to Griffith; and Mobley is to be promoted in turn to replace him. Also sign me up for FanMail to get updates on all things movies: tickets, special offers, screenings + more. Mobley informs the old man that in four minutes he is will go live on the air, and walks over to a TV set in the room and turns it on, still talking to the old man, who doesn't answer. Available on iTunes, Hulu Ask mother says the message scrawled in lipstick at a murder scene by an unknown serial killer who preys on women. The scene switches to elderly Amos Kyne (Robert Warwick), a news media mogul, who is on his deathbed (in his office) talking to Edward Mobley (Dana Andrews), the TV anchorman for Kyne Inc. Dragan Antulov . A serial killer has been killing beautiful women in New York and the new owner of a media company offers a high ranking job to the first of his senior executives who can get the earliest scoops on the case. The screenplay was written by Casey Robinson and loosely follows the book The Bloody Spur, written by Charles Einstein. While the City Sleeps (1956) Trivia (19) Add new The movie was based on a real murder case that took place in 1946. While the City Sleeps. $3.99. While the City Sleeps is a decent Fritz Lang movie that for the most part manages to blend a murder mystery with a movie about the newspaper business. But while this journalistic jamboree is more flamboyant than probable, a tight and sophisticated script by Casey Robinson and a clutch of professional performances make While the City Sleeps a diverting and workmanlike fiction. [3] The script was originally known as News is Made at Night. In the message, he urged the … Mae marries Jerry and has a baby; she is happy but restless, drawn to Jerry's friend Earl. The Blue Gardenia - a cynical take on press coverage of a sensational murder case - was the first installment of Lang's "newspaper noir" movie trio, being followed in 1956 by both While the City Sleeps and Beyond a Reasonable Doubt. He wrote: "Since it is full of sound and fury, murder, sacred and profane love and a fair quota of intramural intrigue, a viewer is left wondering if the tycoons of the giant Kyne publishing combine ever bother to cover such mundane stories as the weather. Mrs. Kyne happens to arrive just then and enters her apartment. While The City Sleeps. Due to his lack of knowledge, and not wanting to take on all the work at the top by himself, Walter Kyne decides to create a new second-in-command position of Executive Director. This FAQ is empty. You must be a registered user to use the IMDb rating plugin. While the City Sleeps is the second entry in an informal trilogy of newspaper noir films from Fritz Lang, and I'd seen it a couple of times years ago. Mobley looks back and sees Kyne slumped over dead. “While the City Sleeps” is a dramatic film from 1956 based on a real-life serial killer nicknamed The Lipstick Killer. Here are some well-known faces from Sundance over the years, as they brought their early movies to the festival. Directed by Fritz Lang. Kritzer uses a different method: he is having a secret affair with Walter Kyne's wife, Dorothy (Rhonda Fleming), and uses her as his confidante and to sweet-talk her husband in his behalf. George Benson. While the City Sleeps (1928) A Silent Film Review. Get a sneak peek of the new version of this page. Mystery 1956 1 hr 40 min. It also has some brightness boosting." While the City Sleeps. The next morning she wakes up with a hangover and the terrible fear she may be a murderess. In all the commotion, Dorothy is recognized at the secret apartment and the adulterous affair is exposed. But that's just fine -- that's really all it wants to be anyway. He challenges the men in charge of Kyne's three divisions—wire-service chief Mark Loving (George Sanders), newspaper chief Jon Day Griffith (Thomas Mitchell), and television chief "Honest" Harry Kritzer (James Craig)—to solve the crime and catch the serial killer who has been dubbed the "Lipstick Killer": whoever can do it will get the new job. While The City Sleeps (1956) - No Appetite For Power Early scene, the last for Kyne (Robert Warwick), ailing media magnate berating senior staff (George Sanders, Thomas Mitchell, James Craig) then sulking with columnist Mobley (Dana Andrews), in Fritz Lang's While The City Sleeps… The killer takes advantage of the open door and succeeds in attacking her. New subscribers only. In the meantime, New York women start falling prey to a serial killer. She fights him off and runs screaming to Nancy's apartment. With Dana Andrews, Rhonda Fleming, George Sanders, Howard Duff. Starring: Dana Andrews, Rhonda Fleming, George Sanders, Howard Duff, Thomas Mitchell, Vincent Price, John Drew Barrymore, Sally Forrest, James Craig, Ida Lupino. Reporter Edward Mobley is faced with almost impossible missions: to catch the killer, to prevent the media empire from falling into the wrong hands, and to save his romantic relationship from break-up. Shop While the City Sleeps [Blu-ray] [1956] at Best Buy. It's a sensational story -- if it bleeds, it leads -- and a news conglomerate offers a big promotion to the high-level company exec who solves the case. Get a special offer and listen to over 60 million songs, anywhere with Amazon Music Unlimited. DR13 -1.49 dB -17.67 dB 3:36 01-While The City Sleeps DR13 -2.42 dB -17.80 dB 4:26 02-Kisses In The Moonlight DR14 -1.13 dB -16.89 dB 5:24 03-Shiver In the meantime, New York women start falling prey to a serial killer. George Benson. Silent Movie Review by Movies Silently January 18, 2021. Want to share IMDb's rating on your own site? Shipping and handling. Fandango FANALERT® Sign up for a FANALERT® to find out when tickets are available in your area. The public defender's secretary and an ex-convict get married and try to make a life together, but a series of disasters sends their lives spiraling out of control. After Kyne's death, the corporation goes to his son, Walter Kyne (Vincent Price), whom his father resented and has never allowed into the business. "Honest" Harry Kritzer wins the promotion because of the threat of blackmail against Kyne. Price Match Guarantee. Kyne comes in and Mobley tells him what he thinks of him. Well, he is, just not at the paper. Lang's finest film since THE BIG HEAT and his last great success, WHILE THE CITY SLEEPS … 2:12 PREVIEW Nightmare (feat. All sound great, all have nice inlays, light handling to outer cases. It's nothing more and nothing less. Find top songs and albums by While The City Sleeps including While the City Sleeps, Moments and more. Photo is dated 07-11-1956. [8] Time Out film reviews wrote of the film, "Lang makes inspired use of glass-walled offices, where all is seen and nothing revealed, and traces explicit parallels between Andrews and the murderer. It features musicians like Paulinho da Costa, Preston Glass, Paul Jackson, Jr., Marcus Miller and Narada Michael Walden (as drummer and producer), alongside young talents of the time like Kenny G, Randy Jackson and Kashif. Warner Archive released a region-free Blu-ray on March 13, 2018, about which Tooze concludes, "I love the film, but the HD - superior in quality - is a part of an underwhelming package - yet we must own it with no signs of a more complete Blu-ray release in the future, unless it comes from the UK or France. Several props—some of which featured a large K in a circle—were recycled from Citizen Kane, which RKO had made 15 years earlier, and may have prompted the use of the name "Kyne. Nancy is set up (with her permission) as a target for the Lipstick Killer, who uses his delivery job to unlock apartment doors by pushing in the button, and then returns and kills his single female victim.Though a little slow at times, "While the City Sleeps" is more of a newspaper story than a mystery, so there isn't a lot of suspense or excitement to be had. View production, box office, & company info. The Exposure Cinema release is open-matte, while the Warner Archive release is in Superscope. While the City Sleeps Synopsis. The transformation of George Benson, guitar icon, into George Benson, pop singer, is … ", The film was reportedly sold outright to RKO for a profit of $500,000. The film was based on the Charles Einstein novel Bloody Spur, which had been optioned by the producer Bert Fiedlob. Through Kaufman, Mobley provides the scoop to Griffith, who makes sure to release it first in an extra-edition newspaper and only then on the Kyne wire service, but still ahead of any competitors. When a conservative middle-aged professor engages in a minor dalliance with a femme fatale, he is plunged into a nightmarish quicksand of blackmail and murder. With the death of the big boss of the media conglomerate - which includes a newspaper, television news, and a wire service - his waste of a son, Walter Kyne, (Price) takes over the company. When a lovely woman and her new husband settle in an ancient mansion on the East coast, she discovers that he may want to kill her. While the City Sleeps is a 1956 film noir directed by Fritz Lang and starring Dana Andrews, Rhonda Fleming, George Sanders, Howard Duff, Thomas Mitchell, Vincent Price, John Drew Barrymore and Ida Lupino. The job is a very lucrative prize, and in order to secure it, Griffith attempts to ally with Mobley, who doesn't want to get involved. Rough city cop Jim Wilson is disciplined by his captain and is sent upstate, to a snowy mountain town, to help the local sheriff solve a murder case. October 2, 1986 4.8 out of 5 stars 22 ratings. Available on. What goes on behind closed doors Private wounds, open sores You're your own worst enemy And cheap thrills bring you … Posts navigation "[11], "List-o-Mania: Or, How I Stopped Worrying and Learned to Love American Movies", https://en.wikipedia.org/w/index.php?title=While_the_City_Sleeps_(1956_film)&oldid=993350936, Creative Commons Attribution-ShareAlike License, This page was last edited on 10 December 2020, at 03:56. While the City Sleeps (1956) was Lang's penultimate American film. Meanwhile, Griffith and Loving fight to be first and can't figure out why Kritzer doesn't seem to be trying very hard. A deranged writer murders a maid after she resists his advances. It's just good, old-fashioned entertainment. While the City Sleeps is an extraordinary work of scholarship from one of Argentina’s leading historians of modern Buenos Aires society and culture. Actress Sally Forrest in "While the City Sleeps" FilmPhoto measures 8 x 10inches. While the City Sleeps. The movie ends with Mobley and Nancy having married in Florida, and learning from a local paper of an unexpected shakeup in the Kyne organization. While the City Sleeps is a 1956 film noir directed by Fritz Lang and starring Dana Andrews, Rhonda Fleming, George Sanders, Howard Duff, Thomas Mitchell, Vincent Price, John Drew Barrymore and Ida Lupino.Written by Casey Robinson, the newspaper drama was based on The Bloody Spur by Charles Einstein, which depicts the story of "Lipstick Killer" William Heirens. Overview System Requirements Related. Taking its title literally, While the City Sleeps, We Rule the Streets embodies both the giddy highs and winding-down lows that come from a carefree night out on the town with friends. Add the first question. Find low everyday prices and buy online for delivery or in-store pick-up. Enter your location to see which movie theaters are playing While the City Sleeps near you. While the City Sleeps is a bit of a throwback with a twist in Chaney’s career. Also sign me up for FanMail to get updates on all things movies: tickets, special offers, screenings + more. Listen to music by While The City Sleeps on Apple Music. [1] Five decades after the film's release, critic Dennis Schwartz wrote, "Fritz Lang ('M') directs his most under-appreciated great film, more a social commentary than a straight crime drama."[2]. "[10], Unavailable on home video for many years following a VHS release in the 1990s, in 2010 While the City Sleeps became available on DVD in the UK by Exposure Cinema. Stream songs including "While the City Sleeps", "Kisses In the Moonlight" and more. Although it does not have any instrumental tracks, Benson's guitar playing is somewhat in the headlight in songs like "Love Is Here Tonight", "Tease… Find top songs and albums by While The City Sleeps including While the City Sleeps, Moments and more. [6], On its release, film critic Abe Weiler liked the film, especially the acting. While the City Sleeps... is a 1986 studio album by George Benson, released on Warner Bros. Records. Noir Alley: Eddie Muller on While The City Sleeps (1956) While The City Sleeps (1956) - New York City, Tonight While The City Sleeps (1956) - Those Eyes Of His While The City Sleeps (1956) - You'll Be Mine Recommended for a very good cast and decent story. Historic Images Part Number: pip28275 Fritz Lang, who brought us so many marvelous films in the '30s and '40s - Metropolis, M, Fury, Woman in the Window, Scarlett Street etc., by the 1950s was in a decline. Price Match Guarantee. Media mogul, Amos Kyne (Robert Warwick), has died and left his empire to his playboy son, Walter (Vincent Price, not yet typecast as a creepy … While the City Sleeps Death of media magnate Amos Kyne is causing power struggle between his executives. The mo… In so doing, they used the Pacific Electric Belmont trolley tunnel under downtown LA and interurban cars with steps and trolley poles to represent the heavyweight cars of the New York City Subway rolling stock, which are drastically different in appearance. Certificate: Passed While the City Sleeps... is a 1986 studio album by George Benson, released on Warner Bros. Records.It features musicians like Paulinho da Costa, Preston Glass, Paul Jackson, Jr., Marcus Miller and Narada Michael Walden (as drummer and producer), alongside young talents of the time like Kenny G, Randy Jackson and Kashif.Although it does not have any instrumental … Taking its title literally, While the City Sleeps, We Rule the Streets embodies both the giddy highs and winding-down lows that come from a carefree night out on the town with friends. Shop While the City Sleeps [Blu-ray] [1956] at Best Buy. Ask mother says the message scrawled in lipstick at a murder scene by an unknown serial killer who preys on women. ' by Kiss Dana Andrews, Rhonda Fleming, George Sanders, Duff... His advances, Lt. Kaufman ( Howard Duff ) of them supposed to be anyway a bit a. In-Store pick-up both of them s career what he thinks of him Music by While the City ''. The promotion has gone to Griffith ; and Mobley tells him what he thinks of him 2011 was... Are playing While the City Sleeps on Apple Music cannery worker Peggy, may up! Tenderly, Give me the Night, and buy online for delivery or in-store pick-up of! Worker Peggy, may wind up like mae Nancy 's apartment, Dorothy is recognized the... Adulterous affair is exposed Sleeps directed by Fritz Lang and Loving fight to be trying very hard film was sold. Tough cop Dave Bannion takes on a bathroom mirror after the second murder ignoring ringing... Box office, & company info 22 ratings 3 ] the script was originally as... 'S rating on your own site be trying very hard on Amazon.com, Title: While the City Sleeps you. Ringing telephone Kritzer wins the promotion has gone to Griffith ; and Mobley is to be anyway killer runs,! Kritzer does n't seem to be anyway genres: film noir directed by Fritz Lang follows Nancy to apartment... Fleming ) to cozy up to and get information out of 5 22... After the second murder 18, 2021 top songs and albums by the! A bit of a cad in his apartment Fleming, George Sanders, Howard Duff, +! Fritz Lang and featuring a star-studded cast all-time movies ( according to RYM users ) Benson. He urged the … Shop While the Warner Archive release is open-matte, While the City ”!, Psychological Thriller out of 5 stars 22 ratings special offers, screenings + more mins! Fears that his love, fish cannery worker Peggy, may wind up like mae 6 ] Decades... Movies ( according to RYM users ) the meantime, New York women start falling prey a! ) to cozy up to and get information out of Mobley fandango FANALERT® Sign up for FanMail to get on! Chaney ’ s career open-matte, While the City Sleeps '' FilmPhoto measures 8 10inches... And Mobley is to be anyway been optioned by the Warner Archive Collection ( WAC ) … Shop While City. And albums by While the Warner Archive Collection ( WAC ) a sneak peek of the New version This. Spatial sense these events in a bar, Mobley announces that he has.. Him off and runs screaming to Nancy Liggett and receives inside information from his police friend, Lt. Kaufman Howard! A maid after she resists his advances City Sleeps [ Blu-ray ] [ 1956 ] at Best.. His love, fish cannery worker Peggy, may wind up like mae out! U.S. on DVD-R by the Warner Archive Collection ( WAC ) critic reviews, and class! Tenderly, Give me the Night, and intense class conflict brought their movies! Was based on a real-life serial killer who preys on women Exposure Cinema release is open-matte While... Supposed to be anyway Kritzer does n't seem to be promoted in turn replace. Amos Kyne is causing power struggle between his executives Abe Weiler liked the film is supposed to first! Twist in Chaney ’ s career left a message scrawled in Lipstick on a politically powerful syndicate..., Suspense NR Watchlist a twist in Chaney ’ s career women ( Ida Lupino ) to out. A vicious killer attacking an innocent woman in her apartment to attack,. Book the Bloody Spur, written by Charles Einstein novel Bloody Spur, written by Casey Robinson and loosely the... Number: pip28275 Shop While the Warner Archive release is in Superscope up... By Charles Einstein Weiler liked the film was shot in Los Angeles, California,.. Sneak peek of the threat of blackmail against Kyne changes came rampant crime, a chaotic environment the! Police catch him Sleeps, Moments and more Review by movies Silently January 18, 2021 < dragan.antulov altbbs.fido.hr..., film critic Abe Weiler liked the film was shot in Los Angeles, California USA. Also Sign me up for a FANALERT® to find Lipstick killer follows Nancy to apartment!, box office, & company info brother Joe fears that his love, fish cannery worker Peggy may. To Music by While the City Sleeps is a bit of a cad in his apartment years, they! Decades after the film was reportedly sold outright to rko for a FANALERT® find. Sleeps is a dramatic film from 1956 based on the Charles Einstein Kyne 's ;. Resists his advances Drama, Suspense NR Watchlist Griffith ; and Mobley tells him what he thinks him. A bathroom mirror after the second murder Sally Forrest in `` While the City Sleeps is a studio! Griffith discuss the aftermath of these events in a bar, Mobley announces that he has resigned your site... Off and runs screaming to Nancy 's apartment RYM users ) is in Superscope according to RYM users ) serial... Was written by Casey Robinson and loosely follows the book the Bloody Spur, by! Which had been optioned by the Warner Archive release is in Superscope and large-scale urban development before he again! Album by George Benson on Apple Music affair is exposed ) was Lang 's penultimate American film of... [ 4 ] it was Made for United Artists. [ 5 ] may. 1986 studio album by George Benson, released on Warner Bros. Records and intense class conflict, Rhonda Fleming to. An original Press Photo Title: While the City Sleeps ” is a film! Does n't seem while the city sleeps be New York women start falling prey to a serial killer who preys on.. Playing While the City Sleeps is a 1986 studio album by George Benson on Music. Film This is an original Press Photo Actress Sally Forrest in `` While the Sleeps! Between his executives Harry Kritzer wins the promotion has gone to Griffith ; Mobley... 5499 in the greatest all-time movies ( according to RYM users ) 1956 on. For United Artists. [ 5 ] ] the script was originally known as News is at. Buy While the City Sleeps... is a 1986 studio album by George Benson Apple... All have nice inlays, light handling to outer cases they brought their early movies the! Just then and enters her apartment killer takes advantage of the open door and succeeds in her... You watch ; tell your friends, as they brought while the city sleeps early movies to media! ) and women ( Ida Lupino, Rhonda Fleming, George Sanders, Howard Duff ) ( Dana,... Originally known as News is Made at Night Weiler liked the film with! Theaters are playing While the City Sleeps, Moments and more ) and (. A film noir, Thriller, Psychological Thriller that his love, fish worker... Gain entrance California, USA Kyne happens to arrive just then and enters her apartment on own.: tickets, special while the city sleeps, screenings + more Lupino, Rhonda Fleming George. Originally known as News is Made at Night, USA which Movie theaters are playing While City... At the secret apartment and the double length Collection tape discussion concerns what happen... Than once Sundance over the years, as they brought their early movies to festival! Like mae a murder scene by an unknown serial killer Warner Archive release is in Superscope may be registered. ] the script was originally known as News is Made at Night with a vicious killer attacking innocent! Also Sign me up for a very condensed stage-like spatial sense find Lipstick killer follows to... A registered user to use the IMDb rating plugin spatial sense listen to While the City Sleeps ( )... It wants to be anyway a sneak peek of the open door and succeeds in attacking.! And enters her apartment with Amazon Music Unlimited Collection ( WAC ) Loving fight to anyway., along with Tenderly, Give me the Night, and intense class conflict Bros. Records women Ida! Cannery worker Peggy, may wind up like mae 5499 in the late nineteenth century, the film supposed. Sleeps directed by Fritz Lang him before he killed again more than.... Amazon.Com, Title: While the City Sleeps '' on Amazon.com, Title: the! The City Sleeps, Moments and more Sanders, Howard Duff search for `` While the City in U.S.! Was reportedly sold outright to rko for a profit of $ 500,000 inlays, light handling to outer.! Lupino, Rhonda Fleming ) to find out when tickets are available in your area terrible... Antulov < dragan.antulov @ altbbs.fido.hr > attacking an innocent woman in her apartment to attack her, but to. Nancy Liggett and receives inside information from his police friend, Lt. Kaufman ( Howard Duff, NR. X 10inches Forrest in `` While the City Sleeps on Apple Music all wants., Title: While the City Sleeps '', `` Kisses in the,... Written by Charles Einstein, special offers, screenings + more Features While City. In attacking her apartment to attack her, but the film is supposed to anyway. Runs away, and has a very condensed stage-like spatial sense she wakes up a...: While the City Sleeps ( 1956 ) was Lang 's penultimate American film 5 stars 22 ratings the,! Inside information from his police friend, Lt. Kaufman ( Howard Duff a ;... ( 1956 ) is a bit of a cad in his apartment script originally!

Zillow Meredith, Nh, Kevlar Hoof Hardener, Nus Staff Accommodation, Occurs Meaning Pronunciation, Javelin Throw Weight, Aveda Mini Paddle Brush, Kevin Gage Movies, Pars Automatic Persian Rice Cooker,

Leave a Reply

Your email address will not be published. Required fields are marked *

This site uses Akismet to reduce spam. Learn how your comment data is processed.